Достать ножи: Стеклянная луковица

MVO

Добыча

Дубляж

Уэнсдэй

1 сезон

Тор

Дубляж

13 клиническая

1 сезон

Жестокая ночь

MVO

Одни из нас

1 сезон

Deluxe

pack

Рекомендуем

30

Пиратка

ВАЖНО

ВАЖНО

Ghostwire

Пиратка

jed

RePack

nioh2

RePack

RDR2

RePack

NEED FOR SPEED™ PAYBACK

RePack

скачать торрент

Кинопоиск HD

Острые козырьки 6 сезон

6 сезон

FAR CRY 6

RePack

скачать торрент

Лицензия

скачать торрент

MVO

1

1 сезон

скачать торрент

1 сезон

скачать торрент

Лицензия

  

Всё везде и сразу / Everything Everywhere All at Once (Дэн Кван, Дэниэл Шайнерт) [2022, Фантастика, комедия, боевик, приключения, фэнтези, WEB-DLRip-AVC] MVO [Jaskier]

Всё везде и сразу через торрент 2023.piratbit.fun

Размер: 2.97 GB | Добавлен: 8 мес. назад | Торрент скачан:353 раза
Смотреть онлайн | Скачать | Поддержите нас   

20-05-2022 11:47 Всё везде и сразу Скачать торрент  

Всё везде и сразу
Everything Everywhere All at Once

Год выпуска: 2022
Страна: США
Выпущено: AGBO, Hotdog Hands, Ley Line Entertainment
Жанр: Фантастика, комедия, боевик, приключения, фэнтези
Продолжительность: 02:19:19
Перевод: Профессиональный (многоголосый закадровый) | Jaskier
Субтитры: Английские (full, SDH) и (хардсаб) на китайскую речь.

Режиссер: Дэн Кван, Дэниэл Шайнерт

rating

В ролях: Мишель Йео, Джейми Ли Кёртис, Ке Хюи Куан, Стефани Сюй, Джеймс Хун, Тэлли Медел, Дженни Слейт, Гарри Шам мл., Бифф Уифф, Сунита Мани

Описание: В жизни Эвелин царит бардак. Она никак не может составить налоговый отчёт, пожилой отец постоянно требует внимания, муж витает в облаках, а ещё и дочка привела свою девушку знакомиться с семьёй. Во время визита в налоговую всё запутывается ещё сильнее — оказывается, Эвелин может скакать по параллельным вселенным и получать доступ к воспоминаниям и навыкам других версий самой себя. И теперь, в полнейшем хаосе, женщине придётся противостоять загадочной злой сущности, которая решила разрушить не только этот мир, но и всю мультивселенную.

Качество: WEB-DLRip-AVC
Формат: MKV

Видео: MPEG-4 AVC, 1152x624 (1.85:1), 23.976 fps, ~ 2385 kbps
Аудио#1 RUS: 48 kHz, AC3 Dolby Digital, 3/2 (L, C, R, l, r) + LFE ch, ~448 Kbps
Аудио#2 ENG: 48 kHz, AC3 Dolby Digital, 3/2 (L, C, R, l, r) + LFE ch, ~448 Kbps
скриншот  скриншот  скриншот  скриншот  

General
Unique ID : 2409679957222128181495336341560147124 (0x1D01664FF5FC0E63B01ACE68ABCBCB4)
Complete name : L:Everything.Everywhere.All.At.Once.2022.MVO.WEB-DLRip.x264.mkv
Format : Matroska
Format version : Version 4
File size : 2.97 GiB
Duration : 2 h 19 min
Overall bit rate : 3 050 kb/s
Encoded date : UTC 2022-05-20 11:15:53
Writing application : mkvmerge v63.0.0 ('Everything') 64-bit
Writing library : libebml v1.4.2 + libmatroska v1.6.4
Cover : Yes
Attachments : cover.jpg / cover 2.jpg

Video
ID : 1
Format : AVC
Format/Info : Advanced Video Codec
Format profile : [email protected]
Format settings : CABAC / 16 Ref Frames
Format settings, CABAC : Yes
Format settings, Reference : 16 frames
Codec ID : V_MPEG4/ISO/AVC
Duration : 2 h 19 min
Bit rate : 2 216 kb/s
Width : 1 152 pixels
Height : 624 pixels
Display aspect ratio : 1.85:1
Frame rate mode : Constant
Frame rate : 23.976 (24000/1001) FPS
Color space : YUV
Chroma subsampling : 4:2:0
Bit depth : 8 bits
Scan type : Progressive
Bits/(Pixel*Frame) : 0.129
Stream size : 2.16 GiB (73%)
Writing library : x264 core 148 r2638 7599210
Encoding settings : cabac=1 / ref=16 / deblock=1:0:0 / analyse=0x3:0x113 / me=umh / subme=10 / psy=1 / psy_rd=1.00:0.00 / mixed_ref=1 / me_range=32 / chroma_me=1 / trellis=2 / 8x8dct=1 / cqm=0 / deadzone=21,11 / fast_pskip=1 / chroma_qp_offset=-2 / threads=12 / lookahead_threads=3 / sliced_threads=0 / nr=0 / decimate=1 / interlaced=0 / bluray_compat=0 / constrained_intra=0 / bframes=16 / b_pyramid=2 / b_adapt=2 / b_bias=0 / direct=3 / weightb=1 / open_gop=0 / weightp=2 / keyint=250 / keyint_min=23 / scenecut=40 / intra_refresh=0 / rc_lookahead=60 / rc=2pass / mbtree=1 / bitrate=2216 / ratetol=1.0 / qcomp=0.60 / qpmin=0 / qpmax=69 / qpstep=4 / cplxblur=20.0 / qblur=0.5 / ip_ratio=1.40 / aq=1:1.00
Language : Russian
Default : Yes
Forced : No
Color range : Limited
Color primaries : BT.709
Transfer characteristics : BT.709
Matrix coefficients : BT.709

Audio #1
ID : 2
Format : AC-3
Format/Info : Audio Coding 3
Commercial name : Dolby Digital
Codec ID : A_AC3
Duration : 2 h 19 min
Bit rate mode : Constant
Bit rate : 384 kb/s
Channel(s) : 6 channels
Channel layout : L R C LFE Ls Rs
Sampling rate : 48.0 kHz
Frame rate : 31.250 FPS (1536 SPF)
Compression mode : Lossy
Stream size : 383 MiB (13%)
Title : MVO_Jaskier
Language : Russian
Service kind : Complete Main
Default : Yes
Forced : No

Audio #2
ID : 3
Format : AC-3
Format/Info : Audio Coding 3
Commercial name : Dolby Digital
Codec ID : A_AC3
Duration : 2 h 19 min
Bit rate mode : Constant
Bit rate : 448 kb/s
Channel(s) : 6 channels
Channel layout : L R C LFE Ls Rs
Sampling rate : 48.0 kHz
Frame rate : 31.250 FPS (1536 SPF)
Compression mode : Lossy
Stream size : 446 MiB (15%)
Title : English
Language : English
Service kind : Complete Main
Default : No
Forced : No

Text #1
ID : 4
Format : UTF-8
Codec ID : S_TEXT/UTF8
Codec ID/Info : UTF-8 Plain Text
Duration : 2 h 17 min
Bit rate : 41 b/s
Count of elements : 1685
Stream size : 42.1 KiB (0%)
Title : Full
Language : English
Default : No
Forced : No

Text #2
ID : 5
Format : UTF-8
Codec ID : S_TEXT/UTF8
Codec ID/Info : UTF-8 Plain Text
Duration : 2 h 18 min
Bit rate : 59 b/s
Count of elements : 2320
Stream size : 60.2 KiB (0%)
Title : SDH
Language : English
Default : No
Forced : No

Menu
00:00:00.000 : :Глава 01
00:07:30.000 : :Глава 02
00:15:00.000 : :Глава 03
00:22:30.000 : :Глава 04
00:30:00.000 : :Глава 05
00:37:30.000 : :Глава 06
00:45:00.000 : :Глава 07
00:52:30.000 : :Глава 08
01:00:00.000 : :Глава 09
01:07:30.000 : :Глава 10
01:15:00.000 : :Глава 11
01:22:30.000 : :Глава 12
01:30:00.000 : :Глава 13
01:37:30.000 : :Глава 14
01:45:00.000 : :Глава 15
01:52:30.000 : :Глава 16
02:00:00.000 : :Глава 17
02:07:30.000 : :Глава 18
02:15:00.000 : :Глава 19




Скачать Всё везде и сразу через торрент https://i6-imageban-ru.translate.goog/out/2022/05/19/7723a7790678aa0f9bf76d9b085c40a1.jpg Скачать, смотреть онлайн Всё везде и сразу бесплантно в хорошем качестве Описание: В жизни Эвелин царит бардак. Она никак не может составить налоговый отчёт, пожилой отец постоянно требует внимания, муж витает в ... 8.8 10 9
Торрент: Зарегистрирован [2022-05-20 11:47] · скачан: 353 раз
Статус: √ проверено
Размер: 2.97 GB
Как cкачать? Как скачать Всё везде и сразу через торрент | UTorrent

% Раздел Тема Автор DL S | L
Фильмы 2022-2023 [DVDrip, WEB-DLRip, HDrip] (DUB, MVO) [ 2.18 GB ] Всё везде и сразу / Everything Everywhere All at Once | DUB | BDRip bober100 Скачать
5 | 0
T Фильмы 2022-2023 (Звук TS, Cam, VO, DVO) [ 2.75 GB ] Всё везде и сразу / Everything Everywhere All at Once | DUB | DLRip-AVC bober100 Скачать
4 | 0
Ultra HD (UHD: 2K, 4K, 8K) [ 16.02 GB ] Всё везде и сразу / Everything Everywhere All at Once | Jaskier | 2160p bober100 Скачать
5 | 0
Фильмы [HD 720p, 1080p] (Хороший звук DUB, MVO) [ 18.04 GB ] Всё везде и сразу / Everything Everywhere All at Once | Jaskier | 1080p bober100 Скачать
4 | 1
Фильмы 2022-2023 [DVDrip, WEB-DLRip, HDrip] (DUB, MVO) [ 1.46 GB ] Всё везде и сразу / Everything Everywhere All at Once | DUB | BDRip bober100 Скачать
9 | 0
Фильмы 2022-2023 [DVDrip, WEB-DLRip, HDrip] (DUB, MVO) [ 2.99 GB ] Всё везде и сразу / Everything Everywhere All at Once | Jaskier | DLRip-AVC Lithuania Скачать
3 | 0
Фильмы 2022-2023 [DVDrip, WEB-DLRip, HDrip] (DUB, MVO) [ 1.46 GB ] Всё везде и сразу / Everything Everywhere All at Once | DUB | DLRip bober100 Скачать
6 | 0

28-11-2019 20:33  


Отключить вcю реклaмy на сайте, в т.ч. и в плеере онлайн просмотра!

    Дорогой пользователь! Огромная просьба, поблагодарите релизера, оцените раздачу и оставьте свои комментарий, если Вы скачали Всё везде и сразу через торрент бесплатно!!
    Комментировать посты могут только пользователи прошедшие не сложную регистрацию
    Показать сообщения:    


    Всё везде и сразу через торрент
    Скачать бесплатно Всё везде и сразу
    Всё везде и сразу скачать торрент
    Всё везде и сразу смотреть онлайн
    Cкачать фильм Всё везде и сразу бесплатно
    Всё везде и сразу скачать торрент в хорошем качестве
    Всё везде и сразу смотреть онлайн бесплатно в хорошем качестве
    Вы можете начинать темы
    Вы можете отвечать на сообщения
    Вы не можете редактировать свои сообщения
    Вы не можете удалять свои сообщения
    Вы не можете голосовать в опросах
    Вы не можете прикреплять файлы к сообщениям
    Вы можете скачивать файлы
    Всё везде и сразу / Everything Everywhere All at Once [2022, Фантастика, комедия, боевик, приключения, фэнтези, WEB-DLRip-AVC] MVO [Jaskier] смотреть онлайн, скачать торрент picoco.icu